tarantolabus
» » Courtney Pine - Destiny's Song + The Image Of Pursuance

Courtney Pine - Destiny's Song + The Image Of Pursuance download flac

Courtney Pine - Destiny's Song + The Image Of Pursuance download flac

Performer: Courtney Pine
Title: Destiny's Song + The Image Of Pursuance
Released: 1988
Country: UK
Category: Jazz
Album rating: 4.6
Votes: 212
Size MP3: 1155 mb
Size FLAC: 1302 mb
Size WMA: 1547 mb
Other formats: MPC AU ASF MP2 WMA AUD MPC

Soprano Saxophone – Courtney Pine (tracks: 3, 10). Technician – Jamaaladeen. Tenor Saxophone – Courtney Pine (tracks: 1, 2, 4-8). Written-By, Arranged By – Courtney Pine (tracks: 1-4, 6-10). Recorded at Angel Studios, London, July 29-August 1, 1987 Mixed at Mission Control & Newbury Sound, Boston, Mass. Mastered at Sterling Sound, New York.

Saxophone Jazz,Post-Bop, Contemporary Jazz) Michael Brecker - Don't Try This At Home - 1988, FLAC (image+. 00 TRACK 02 AUDIO TITLE "In pursuance" PERFORMER "Courtney Pine" INDEX 00 07:47:25 INDEX 01 07:49:10 TRACK 03 AUDIO TITLE "The vision" PERFORMER "Courtney Pine" INDEX 00 14:40:03 INDEX 01 14:41:12 TRACK 04 AUDIO TITLE "Guardian of the flame" PERFORMER "Courtney Pine" INDEX 00 18:31:64 INDEX 01 18:34:45 TRACK 05 AUDIO.

SoundHound on Twitter.

Courtney Pine – Destiny’s Song Record Label: Antilles ▪ Release Date: 1988 ▪ Style(s): Neo Bop, Modal Courtney Pine - Tenor Sax & Soprano Sax ▪ Julian Joseph, Joe Bashorun - Piano ▪ George Morrow - Bass ▪ Paul Hunt, Gary Crosby - Double Bass ▪ Mark Mondesir - Drums.

Artist: Courtney Pine Title Of Album: Destiny's Song And The Image Of Pursuance Year: 1988 Genre: Jazz, Post-Bop Label: Island Records, Antilles Format: FlacCueLogArtwork Quality: Lossless. 01 - Beyond the thought of my last reckoning 02 - In pursuance 03 - The vision 04 - Guardian of the flame 05 - Round midnight 06 - Sacrifice 07 - Prismic omnipotence 08 - Alone 09 - A raggamuffin's tale 10 - Mark of time. personnel : Gary Crosby - Double Bass Mark Mondesir - Drums Joe Bashorun - Piano Courtney Pine - Tenor Saxophone, Soprano Saxophone.

Full list of Courtney Pine albums, sorted by release date. You can also sort the list of albums by most recently added, year recorded (from most recent to first recorded), by views and by album name. Destiny's Song & The Image of Pursuance.

Tracklist Hide Credits

A1 Beyond The Thought Of My Last Reckoning 7:44
A2 In Pursuance 6:48
A3 The Vision 3:51
A4 Guardian Of The Flame 2:30
A5 'Round Midnight 3:22
B1 Sacrifice 5:52
B2 Prismic Omnipotence 6:16
B3 Alone 5:30
B4 A Raggamuffin's Tale 7:45
B5 Mark Of Time
Bass – Gary Crosby
4:02

Credits

  • Double Bass – Gary Crosby (tracks: A3, A4, B3), Paul Hunt (tracks: A1, A2, B1, B2, B4)
  • Drums – Mark Mondesir (tracks: A1 to A3, B1 to B5)
  • Photography – Mike Prior
  • Piano – Joe Bashorun (tracks: A3, A4, B3, B5), Julian Joseph (tracks: A1, A2, B1, B2)
  • Producer – Delfeayo Marsalis
  • Saxophone [Soprano] – Courtney Pine (tracks: A3, B5)
  • Saxophone [Tenor] – Courtney Pine (tracks: A1, A2, A4 to B4)

Notes

(P) 1988 Island Records Ltd.
GEMA STEMRA BIEM
First Edition with OBI

Barcode and Other Identifiers

  • Matrix / Runout: DM 208827 A-1/12-87
  • Matrix / Runout: DM 208827 B-1/12-87

Other versions

Category Artist Title (Format) Label Category Country Year
AN 8725 Courtney Pine Destiny's Song + The Image Of Pursuance ‎(LP, Album) Antilles New Directions AN 8725 UK 1988
408 827 Courtney Pine Destiny's Song + The Image Of Pursuance ‎(Cass, Album) Island Records 408 827 Europe 1988
AN 8725 Courtney Pine Destiny's Song + The Image Of Pursuance ‎(LP, Album) Antilles New Directions AN 8725 Greece 1988
670.8020 Courtney Pine Destiny's Song + The Image Of Pursuance ‎(LP, Album) Antilles New Directions 670.8020 Brazil 1988
90697-1 Courtney Pine Destiny's Song + The Image Of Pursuance ‎(LP, Album) Antilles New Directions 90697-1 US 1988


Related to Courtney Pine - Destiny's Song + The Image Of Pursuance

Mica Paris Featuring Courtney Pine - Like Dreamers Do download flac

Mica Paris Featuring Courtney Pine - Like Dreamers Do flac download

Released: 1988
Country: UK
Style: Soul-Jazz, Soul
The Pine / The Saddest Landscape - Split download flac

The Pine / The Saddest Landscape - Split flac download

Released: 2003
Country: US
Style: Hardcore, Emo
Courtney Pine - Modern Day Jazz Stories download flac

Courtney Pine - Modern Day Jazz Stories flac download

Country: US
Style: Drum n Bass, Future Jazz, Downtempo
Andrea Marcelli - Oneness download flac

Andrea Marcelli - Oneness flac download

Released: 1993
Country: US
Style: Fusion
Paul McCandless - Premonition download flac

Paul McCandless - Premonition flac download

Released: 1992
Country: US
Style: Contemporary Jazz